Details for this torrent 

Rise of the Guardians (2012) BRRip XviD juggs
Type:
Video > Movies
Files:
3
Size:
714.39 MiB (749090133 Bytes)
Spoken language(s):
English
Uploaded:
2013-02-26 12:30:15 GMT
By:
juggs99 VIP
Seeders:
8
Leechers:
1
Comments
3  

Info Hash:
 
CDAD25C0DCB17EB443166911BA6D1DFE47928F35




(Problems with magnets links are fixed by upgrading your torrent client!)
Format                                   : AVI
Format/Info                              : Audio Video Interleave
File size                                : 701 MiB
Duration                                 : 1h 37mn
Overall bit rate                         : 1 009 Kbps
Writing library                          : VirtualDub build 32842/release

Video
ID                                       : 0
Format                                   : MPEG-4 Visual
Format profile                           : Advanced Simple@L5
Format settings, BVOP                    : 4
Format settings, QPel                    : No
Format settings, GMC                     : No warppoints
Format settings, Matrix                  : Default (H.263)
Muxing mode                              : Packed bitstream
Codec ID                                 : XVID
Codec ID/Hint                            : XviD
Duration                                 : 1h 37mn
Bit rate                                 : 871 Kbps
Width                                    : 640 pixels
Height                                   : 352 pixels
Display aspect ratio                     : 16:9
Frame rate                               : 23.976 fps
Color space                              : YUV
Chroma subsampling                       : 4:2:0
Bit depth                                : 8 bits
Scan type                                : Progressive
Compression mode                         : Lossy
Bits/(Pixel*Frame)                       : 0.161
Stream size                              : 606 MiB (86%)
Writing library                          : XviD 64

Audio
ID                                       : 1
Format                                   : MPEG Audio
Format version                           : Version 1
Format profile                           : Layer 3
Codec ID                                 : 55
Codec ID/Hint                            : MP3
Duration                                 : 1h 37mn
Bit rate mode                            : Constant
Bit rate                                 : 128 Kbps
Channel(s)                               : 2 channels
Sampling rate                            : 44.1 KHz
Compression mode                         : Lossy
Stream size                              : 89.0 MiB (13%)
Alignment                                : Split accross interleaves
Interleave, duration                     : 42 ms (1.00 video frame)
Interleave, preload duration             : 500 ms
Writing library                          : LAME3.99r
Encoding settings                        : -m s -V 4 -q 3 -lowpass 17 -b 128


 
http://www.shotpix.com/images/48315963083509183166.png 
http://www.shotpix.com/images/07640103621164741409.png 
http://www.shotpix.com/images/70632606903513232350.png		

Comments

A-9
V-9
M-10
Movie was kickass. All must watch!
Where to find this movie? :D
youtube / HZKp81-tAjw
A V 9. Great family flick. Thanks juggs.